Login

  

Sharknado 5 Global Swarming (2017) WEB-DL





Thread creado por cgarcia1097 el 07/08/2017 04:12:23 am. Lecturas: 1,817. Mensajes: 10. Favoritos: 1





07/08/2017 04:12:23 am 
       5                           
Sharknado.5.Global.Swarming.2017.1080p.WEB.x264-TBS 2.53GB



Información
IMDB: tt6298780
Título: Sharknado.5.Global.Swarming.2017.
Género: Horror , Sci-Fi.
Duración: 01:26 hrs at 23.976 fps
Director: Anthony C. Ferrante.
Guión: Thunder Levin (based on characters created by), Scotty Mullen.
Reparto: Ian Ziering, Tara Reid, Cassandra Scerbo, SEGUN SALE EL ´´CULAZO´´ Janet Garcia, pero en los creditos de IMDB no aparece su nombre...

Sinopsis
Fin Shephard (Ian Ziering) y su mujer biónica April (Tara Reid) se toman esta nueva misión como algo personal cuando el más joven de sus hijos queda atrapado en un “viajenado” y transportado por todo el mundo. De Londres a Rio de Janeiro, Tokio, Roma, Amsterdam y más allá, nuestros héroes trotamundos necesitarán la ayuda de un grupo altamente cualificado: gente de la realeza, estudiosos y deportistas olímpicos junto con caras conocidas del mundo de la comunicación, el entretenimiento y los deportes en su batalla más épica hasta la fecha. (Abandomoviez)
[-] Hide MediaInfo

Video
ID : 1
Format : AVC
Format/Info : Advanced Video Codec
Format profile : Main@L4
Format settings, CABAC : Yes
Format settings, ReFrames : 1 frame
Format settings, GOP : M=1, N=48
Codec ID : V_MPEG4/ISO/AVC
Duration : 1h 26mn
Bit rate : 4 096 Kbps
Width : 1 920 pixels
Height : 1 080 pixels
Display aspect ratio : 16:9
Frame rate mode : Variable
Frame rate : 23.976 (24000/1001) fps
Color space : YUV
Chroma subsampling : 4:2:0
Bit depth : 8 bits
Scan type : Progressive
Bits/(PixelFrame) : 0.082
Stream size : 2.47 GiB (98%)
Writing library : x264 core 120
Encoding settings : cabac=1 / ref=1 / deblock=1:0:0 / analyse=0x1:0x111 / me=hex / subme=6 / psy=1 / psy_rd=1.00:0.00 / mixed_ref=0 / me_range=16 / chroma_me=0 / trellis=1 / 8x8dct=0 / cqm=0 / deadzone=21,11 / fast_pskip=1 / chroma_qp_offset=-2 / threads=8 / sliced_threads=0 / nr=0 / decimate=1 / interlaced=0 / bluray_compat=0 / constrained_intra=0 / bframes=0 / weightp=2 / keyint=48 / keyint_min=25 / scenecut=0 / intra_refresh=0 / rc=abr / mbtree=0 / bitrate=4096 / ratetol=1.0 / qcomp=0.60 / qpmin=10 / qpmax=51 / qpstep=4 / ip_ratio=1.40 / aq=1:1.00
Default : Yes
Forced : No

Audio
ID : 2
Format : AAC
Format/Info : Advanced Audio Codec
Format profile : LC
Codec ID : A_AAC
Duration : 1h 26mn
Bit rate : 96.0 Kbps
Channel(s) : 2 channels
Channel positions : Front: L R
Sampling rate : 44.1 KHz
Frame rate : 43.066 fps (1024 spf)
Compression mode : Lossy
Stream size : 59.3 MiB (2%)
Default : Yes
Forced : No




Trailer:
55 5



07/08/2017 10:31:14 am 
       6                           



08/08/2017 06:34:10 pm 
       3                           
Agregado a Últimos Estrenos - Agosto (2). Saludos.


08/08/2017 08:26:05 pm 
       4                           
El otro día no habia salido el release de la 4ta parte? Cada cuanto hace una pelicula de sharknado? cada mes?


08/08/2017 09:23:49 pm 
       8                           
xtro7


Miembro desde: 04/07/2004

Threads abiertos: 38
Mensajes: 733  
Subtítulos subidos: 0
Threads Favoritos: 18





con facebook






11/08/2017 08:44:14 pm 
       1                           
micha


Miembro desde: 23/02/2008

Threads abiertos: 100
Mensajes: 6495  
Subtítulos subidos: 0
Threads Favoritos: 285





La 1 y la 2 estan buenas, las estoy mirando por netflix, ahi esta hasta la 4ta...
Gracias por la data!!!


12/08/2017 10:27:59 am 
       0                           
alesouza


Miembro desde: 24/01/2012

Threads abiertos: 0
Mensajes: 1  
Subtítulos subidos: 0
Threads Favoritos: 0



como descargo?


12/08/2017 07:02:38 pm 
       2                           
magodeoz80


Miembro desde: 20/12/2012

Threads abiertos: 0
Mensajes: 2  
Subtítulos subidos: 2
Threads Favoritos: 0



Buenas, se consiguen subtitulos o es demasiado pronto?


14/08/2017 05:06:17 pm 
       1                           
Hay que tener atrofia cerebral para guste este tipo de ´´películas´´....


14/08/2017 10:07:32 pm 
       1                           
micha


Miembro desde: 23/02/2008

Threads abiertos: 100
Mensajes: 6495  
Subtítulos subidos: 0
Threads Favoritos: 285





pabloaran escribió:
Hay que tener atrofia cerebral para guste este tipo de películas....


a mi las dos primeras me gustaron






sharknado

1