Login

  

The Boss Baby 2017 1080p BluRay





Thread creado por camuspise el 09/07/2017 05:22:41 pm. Lecturas: 1,079. Mensajes: 10. Favoritos: 1





09/07/2017 05:22:41 pm 
       5                           


Sinopsis
La llegada de un hermanito trastoca por completo la idílica vida del pequeño Tim, hasta entonces hijo único de 7 años y el ojito derecho de sus padres. Su nuevo hermano es un peculiar bebé, que viste traje y corbata y lleva maletín. Tim comienza a sospechar de él, hasta que descubre que puede hablar.

Genre: Animation Comedy Family
IMDB Rating: 6.4/10 From 35,371 Users
Directed by: Tom McGrath
Starring: Alec Baldwin, Steve Buscemi, Jimmy Kimmel

Release Name: The.Boss.Baby.2017.1080p.BluRay.x264-SPARKS
Size: 5.45 GB
Video: MKV 1920×816 6512 kbps
Audio: English DTS 1509 kbps
Runtime: 1h 37mn

Release Name: The.Boss.Baby.2017.720p.BluRay.x264-SPARKS
Size: 3.27 GB
Video: MKV 1280×544 3 301 kbps
Audio: English DTS 1509 kbps

Release Name: The.Boss.Baby.2017.BDRip.x264-SPARKS
Size: 693 MB
Video: MKV 720×306
Audio: English AAC

Release Name: The.Boss.Baby.2017.BRRip.XviD.AC3-RBG [P2P]
Size: 1.41 GB
Video: AVi 720×306 1 596 Kbps
Audio: English AC3 448 kbps




Aca estan los subtitulos para las versiones SPARKS y RARBG del maser antillano, gracial mil por el laburo:

www.subdivx.com/X6XNTA2OTY2X-the-boss-baby-2017.html




Aca esta el audio latino, que esta disponible en estos momentos:

Caracteristicas

General
Complete name : E: THEB0SSB4B7.ac3
Format : AC-3
Format/Info : Audio Coding 3
File size : 269 MiB
Duration : 1h 37mn
Overall bit rate mode : Constant
Overall bit rate : 384 Kbps

Audio
Format : AC-3
Format/Info : Audio Coding 3
Mode extension : CM (complete main)
Format settings, Endianness : Big
Duration : 1h 37mn
Bit rate mode : Constant
Bit rate : 384 Kbps
Channel(s) : 6 channels
Channel positions : Front: L C R, Side: L R, LFE
Sampling rate : 48.0 KHz
Frame rate : 31.250 fps (1536 spf)
Compression mode : Lossy
Stream size : 269 MiB (100%)

Audio Latino
55 5



09/07/2017 05:41:31 pm 
       1                           
La verdad no me hizo ni una gracia... Aburrida es...


09/07/2017 06:49:03 pm 
       1                           
Agregado a Últimos Estrenos - Julio. Saludos.


09/07/2017 10:55:53 pm 
       1                           
tomas01


Miembro desde: 05/01/2015

Threads abiertos: 2
Mensajes: 12  
Subtítulos subidos: 0
Threads Favoritos: 0





Beelzebul escribió:
La verdad no me hizo ni una gracia... Aburrida es...

Y segun filmaffinity dice que viene una secuela para el 2021
https://www.filmaffinity.com/mx/film536682.html


09/07/2017 11:26:12 pm 
       0                           
tomas01 escribió:
Beelzebul escribió: La verdad no me hizo ni una gracia... Aburrida es...Y segun filmaffinity dice que viene una secuela para el 2021https://www.filmaffinity.com/mx/film536682.html





10/07/2017 12:48:34 am 
       0                           
ataxio


Miembro desde: 29/05/2006

Threads abiertos: 0
Mensajes: 4  
Subtítulos subidos: 0
Threads Favoritos: 0



Audio
Format : AC-3
Format/Info : Audio Coding 3
Mode extension : CM (complete main)
Format settings, Endianness : Big
Duration : 1h 37mn
Bit rate mode : Constant
Bit rate : 384 Kbps
Channel(s) : 6 channels
Channel positions : Front: L C R, Side: L R, LFE
Sampling rate : 48.0 KHz
Frame rate : 31.250 fps (1536 spf)
Compression mode : Lossy
Stream size : 269 MiB (100%)

Que novedad, pense que el audio disponible hasta el momento era 2.0, pero este esta 5.1 Gracias!!


13/07/2017 03:57:43 pm 
       0                           
scdeville


Miembro desde: 13/07/2017

Threads abiertos: 0
Mensajes: 2  
Subtítulos subidos: 0
Threads Favoritos: 0



Mil disculpas, una consulta. Descargué la peli (versión The.Boss.Baby.2017.HDRip.XviD.AC3-EVO) y el archivo ac3 con audio latino. Como hago para que el vlc me reproduzca el video con el audio latino? En la pestaña de audio no me aparece la pista ac3 ni me da opción de buscar otra. Muchas gracias


20/07/2017 10:45:50 pm 
       0                           
nestoroviedo


Miembro desde: 09/07/2007

Threads abiertos: 2
Mensajes: 313  
Subtítulos subidos: 0
Threads Favoritos: 3





scdeville escribió:
Mil disculpas, una consulta. Descargué la peli versión The.Boss.Baby.2017.HDRip.XviD.AC3-EVO y el archivo ac3 con audio latino. Como hago para que el vlc me reproduzca el video con el audio latino? En la pestaña de audio no me aparece la pista ac3 ni me da opción de buscar otra. Muchas gracias


MKVToolNix


20/07/2017 10:56:38 pm 
       0                           
scdeville escribió:
Mil disculpas, una consulta. Descargué la peli versión The.Boss.Baby.2017.HDRip.XviD.AC3-EVO y el archivo ac3 con audio latino. Como hago para que el vlc me reproduzca el video con el audio latino? En la pestaña de audio no me aparece la pista ac3 ni me da opción de buscar otra. Muchas gracias


https://drive.google.com/file/d/0Byia93zpR0emTDduM19wQnZFY28/view?usp=sharing






name

1