Assassins Creed (2016) WEB-DL :: subdivx
  Login

  

Assassins Creed (2016) WEB-DL





Thread creado por Ransel el 10/03/2017 06:03:12 am. Lecturas: 2,595. Mensajes: 5. Favoritos: 0





10/03/2017 06:03:12 am 
       10                           
Assassins.Creed.2016.1080p.WEB-DL.DD5.1.H264-FGT



Gracias a una tecnología revolucionaria que permite el acceso a los recuerdos genéticos, Callum Lynch (Michael Fassbender) revive las aventuras de Aguilar, un antepasado suyo que vivió en la España del siglo XV. Así descubre que es descendiente de una misteriosa organización secreta, los Assassins, y que posee las habilidades y los conocimientos necesarios para enfrentarse a la poderosa y temible organización de los Templarios en la época actual. Adaptación libre del videojuego homónimo.



Video
ID : 1
Format : AVC
Format/Info : Advanced Video Codec
Format profile : High@L4
Format settings, CABAC : Yes
Format settings, ReFrames : 5 frames
Codec ID : V_MPEG4/ISO/AVC
Duration : 1h 56mn
Bit rate : 4 475 Kbps
Width : 1 916 pixels
Height : 800 pixels
Display aspect ratio : 2.40:1
Frame rate mode : Constant
Frame rate : 24.000 fps
Color space : YUV
Chroma subsampling : 4:2:0
Bit depth : 8 bits
Scan type : Progressive
Bits/(PixelFrame) : 0.122
Stream size : 3.64 GiB (90%)
Title : Assassins.Creed.2016.1080p.WEB-DL.DD5.1.H264-FGT
Language : English
Default : Yes
Forced : No
Color range : Limited
Color primaries : BT.709
Transfer characteristics : BT.709
Matrix coefficients : BT.709

Audio
ID : 2
Format : AC-3
Format/Info : Audio Coding 3
Mode extension : CM (complete main)
Format settings, Endianness : Big
Codec ID : A_AC3
Duration : 1h 56mn
Bit rate mode : Constant
Bit rate : 384 Kbps
Channel(s) : 6 channels
Channel positions : Front: L C R, Side: L R, LFE
Sampling rate : 48.0 KHz
Frame rate : 31.250 fps (1536 spf)
Compression mode : Lossy
Stream size : 319 MiB (8%)
Title : Assassins.Creed.2016.1080p.WEB-DL.DD5.1.H264-FGT
Language : English
Default : Yes
Forced : No

Text #1
ID : 3
Format : UTF-8
Codec ID : S_TEXT/UTF8
Codec ID/Info : UTF-8 Plain Text
Title : FORCED
Language : English
Default : Yes
Forced : Yes

Text #2
ID : 4
Format : UTF-8
Codec ID : S_TEXT/UTF8
Codec ID/Info : UTF-8 Plain Text
Language : English
Default : No
Forced : No

Menu
00:00:00.000 : en:Chapter 01
00:06:02.153 : en:Chapter 02
00:09:30.694 : en:Chapter 03
00:12:45.513 : en:Chapter 04
00:16:45.711 : en:Chapter 05
00:21:05.429 : en:Chapter 06
00:26:54.444 : en:Chapter 07
00:31:53.075 : en:Chapter 08
00:38:04.279 : en:Chapter 09
00:41:41.162 : en:Chapter 10
00:46:31.035 : en:Chapter 11
00:50:08.252 : en:Chapter 12
00:53:02.384 : en:Chapter 13
00:56:15.618 : en:Chapter 14
00:59:24.473 : en:Chapter 15
01:02:30.575 : en:Chapter 16
01:06:35.027 : en:Chapter 17
01:13:06.752 : en:Chapter 18
01:18:43.880 : en:Chapter 19
01:23:59.153 : en:Chapter 20
01:30:15.988 : en:Chapter 21
01:34:16.186 : en:Chapter 22
01:37:43.184 : en:Chapter 23
01:40:49.203 : en:Chapter 24







Assassins.Creed.2016.WEB-DL.XviD.MP3-FGT
Assassins Creed 2016 720p WEB-DL X264 AC3-EVO
Assassins Creed 2016 1080p WEB-DL H264 AC3-EVO

SUBTITULO gracias a TaMaBin
1010 10



10/03/2017 01:37:47 pm 
       0                           
Agregado a Últimos Estrenos - Marzo (2). Saludos.


10/03/2017 04:50:38 pm 
       0                           
latino??


12/03/2017 07:32:12 am 
       0                           
omare69


Miembro desde: 24/03/2005

Threads abiertos: 0
Mensajes: 1065  
Subtítulos subidos: 0
Threads Favoritos: 0



Alguien la bajo? que tal la calidad?


13/03/2017 11:50:17 am 
       0                           
Ya Salio Bluray






rate

1