Red Billabong (2016) BluRay :: subdivx
  Login

  

Red Billabong (2016) BluRay





Thread creado por NewRepublic el 10/01/2017 09:03:23 am. Lecturas: 1,461. Mensajes: 4. Favoritos: 0





10/01/2017 09:03:23 am 
       7                           
NewRepublic


Miembro desde: 11/01/2016

Threads abiertos: 100
Mensajes: 1055  
Subtítulos subidos: 79
Threads Favoritos: 0





Red.Billabong.2016.1080p.BluRay.x264-PFa
Red.Billabong.2016.720p.BluRay.x264-PFa



Video
ID : 1
Format : AVC
Format/Info : Advanced Video Codec
Format profile : High@L4.1
Format settings, CABAC : Yes
Format settings, ReFrames : 5 frames
Codec ID : V_MPEG4/ISO/AVC
Duration : 1h 53mn
Bit rate : 8 162 Kbps
Width : 1 920 pixels
Height : 800 pixels
Display aspect ratio : 2.40:1
Frame rate mode : Constant
Frame rate : 24.000 fps
Color space : YUV
Chroma subsampling : 4:2:0
Bit depth : 8 bits
Scan type : Progressive
Bits/(PixelFrame) : 0.221
Stream size : 6.44 GiB (84%)
Writing library : x264 core 148 r2744 b97ae06
Audio
ID : 2
Format : DTS
Format/Info : Digital Theater Systems
Mode : 16
Format settings, Endianness : Big
Codec ID : A_DTS
Duration : 1h 53mn
Bit rate mode : Constant
Bit rate : 1 509 Kbps
Channel(s) : 6 channels
Channel positions : Front: L C R, Side: L R, LFE
Sampling rate : 48.0 KHz
Frame rate : 93.750 fps (512 spf)
Bit depth : 16 bits
Compression mode : Lossy
Stream size : 1.19 GiB (16%)
Default : Yes
Forced : No




77 7



10/01/2017 09:35:11 am 
       2                           
Bodrio asegurado.


10/01/2017 09:51:17 am 
       2                           
Agregado a Últimos Estrenos - Enero (2). Saludos.


10/01/2017 10:04:39 am 
       0                           
Gestapo


Miembro desde: 06/01/2017

Threads abiertos: 0
Mensajes: 127  
Subtítulos subidos: 0
Threads Favoritos: 0



ni con un finito pasa






rate

1