Surfs Up 2 WaveMania (2017) DVDRip :: subdivx
  Login

  

Surfs Up 2 WaveMania (2017) DVDRip





Thread creado por NewRepublic el 10/01/2017 08:58:36 am. Lecturas: 1,279. Mensajes: 2. Favoritos: 0





10/01/2017 08:58:36 am 
       3                           
NewRepublic


Miembro desde: 11/01/2016

Threads abiertos: 120
Mensajes: 1219  
Subtítulos subidos: 80
Threads Favoritos: 0





Surfs.Up.2.WaveMania.2017.DVDRip.XviD.AC3-EVO

Video
ID : 0
Format : MPEG-4 Visual
Format profile : Simple@L3
Format settings, BVOP : No
Format settings, QPel : No
Format settings, GMC : No warppoints
Format settings, Matrix : Default (H.263)
Codec ID : XVID
Codec ID/Hint : XviD
Duration : 1h 24mn
Source duration : 1h 24mn
Bit rate : 1 644 Kbps
Width : 720 pixels
Height : 400 pixels
Display aspect ratio : 16:9
Frame rate : 23.976 (24000/1001) fps
Color space : YUV
Chroma subsampling : 4:2:0
Bit depth : 8 bits
Scan type : Progressive
Compression mode : Lossy
Bits/(PixelFrame) : 0.238
Stream size : 988 MiB (81%)
Writing library : XviD 1.1.2 (UTC 2006-11-01)

Audio
ID : 1
Format : AC-3
Format/Info : Audio Coding 3
Mode extension : CM (complete main)
Format settings, Endianness : Big
Codec ID : 2000
Duration : 1h 24mn
Bit rate mode : Constant
Bit rate : 384 Kbps
Channel(s) : 6 channels
Channel positions : Front: L C R, Side: L R, LFE
Sampling rate : 48.0 KHz
Frame rate : 31.250 fps (1536 spf)
Compression mode : Lossy
Stream size : 231 MiB (19%)
Alignment : Aligned on interleaves
Interleave, duration : 32 ms (0.77 video frame)


33 3



10/01/2017 09:50:38 am 
       0                           
Agregado a Últimos Estrenos - Enero (2). Saludos.






rate

1