Login

  

Little Men (2016) WEB-DL





Thread creado por NewRepublic el 09/01/2017 08:08:49 pm. Lecturas: 1,526. Mensajes: 4. Favoritos: 1





09/01/2017 08:08:49 pm 
       3                           
NewRepublic


Miembro desde: 11/01/2016

Threads abiertos: 120
Mensajes: 1218  
Subtítulos subidos: 80
Threads Favoritos: 0





Little.Men.2016.1080p.WEB-DL.DD5.1.H264-FGT

Video
ID : 1
Format : AVC
Format/Info : Advanced Video Codec
Format profile : High@L4
Format settings, CABAC : Yes
Format settings, ReFrames : 4 frames
Codec ID : V_MPEG4/ISO/AVC
Duration : 1h 25mn
Bit rate : 4 927 Kbps
Width : 1 792 pixels
Height : 1 072 pixels
Display aspect ratio : 5:3
Frame rate mode : Constant
Frame rate : 23.976 (24000/1001) fps
Color space : YUV
Chroma subsampling : 4:2:0
Bit depth : 8 bits
Scan type : Progressive
Bits/(PixelFrame) : 0.107
Stream size : 2.93 GiB (91%)
Title : Little.Men.2016.1080p.WEB-DL.DD5.1.H264-FGT
Language : English
Default : Yes
Forced : No
Color range : Limited
Color primaries : BT.709
Transfer characteristics : BT.709
Matrix coefficients : BT.709

Audio
ID : 2
Format : AC-3
Format/Info : Audio Coding 3
Mode extension : CM (complete main)
Format settings, Endianness : Big
Codec ID : A_AC3
Duration : 1h 25mn
Bit rate mode : Constant
Bit rate : 384 Kbps
Channel(s) : 6 channels
Channel positions : Front: L C R, Side: L R, LFE
Sampling rate : 48.0 KHz
Frame rate : 31.250 fps (1536 spf)
Compression mode : Lossy
Stream size : 234 MiB (7%)
Title : Little.Men.2016.1080p.WEB-DL.DD5.1.H264-FGT
Language : English
Default : Yes
Forced : No



33 3



10/01/2017 01:49:13 am 
       0                           
Agregado a Últimos Estrenos - Enero (2). Saludos.


10/01/2017 09:45:52 am 
       0                           
rocabos


Miembro desde: 25/11/2007

Threads abiertos: 61
Mensajes: 1272  
Subtítulos subidos: 109
Threads Favoritos: 0





Sinopsis:

Dos chicos de orígenes distintos conviven y se hacen amigos en un edificio de Brooklyn, pero su amistad se pondrá a prueba cuando sus respectivas familias se enfrenten por el arrendamiento de una tienda. (FILMAFFINITY).




10/01/2017 05:56:16 pm 
       1                           
Ya hay subtitulos disponibles Aquí






rate

1