Login - 1071 users online  

  

Oblivion 2013 [Audio/Latino 5.1]





Thread creado por oraldo el 24/07/2013 11:28:22 pm. Lecturas: 760. Mensajes: 11. Favoritos: 0






24/07/2013 11:28:22 pm 
           2                           
Oblivion 2013 Latino Dts 5.1 768/Kbps



Tom Cruise protagoniza Oblivion El Tiempo del Olvido- una original e innovadora película del director de ´´El Legado Tron´´ y del productor de ´´El Planeta de los Simios (R)evolución´´. En un mundo futurista, donde la Tierra está completamente cambiada, un hombre deberá enfrentar su pasado que lo llevará a vivir una batalla épica.

Jack Harper (Cruise) es uno de los pocos habitantes en la Tierra que tiene a su cargo el funcionamiento y reparación de los drones.

Viviendo y patrullando los impresionantes cielos a miles de metros de altura, su mundo cambia cuando rescata a una bella desconocida, de una nave derribada. Esto lo obliga a cuestionarse si lo que creía saber hasta el momento es lo correcto. Ahora, el destino de la humanidad está en sus manos... La tierra es un recuerdo por el que vale la pena luchar.

NFO:
General

Complete name : OBBDLATDTS-Krip2Nite.dts
Format : DTS
Format/Info : Digital Theater Systems
File size : 685 MiB
Duration : 2h 4mn
Overall bit rate mode : Constant
Overall bit rate : 768 Kbps

Audio
Format : DTS
Format/Info : Digital Theater Systems
Mode : 16
Format settings, Endianness : Big
Duration : 2h 4mn
Bit rate mode : Constant
Bit rate : 768 Kbps
Channel(s) : 6 channels
Channel positions : Front: L C R, Side: L R, LFE
Sampling rate : 48.0 KHz
Bit depth : 24 bits
Compression mode : Lossy
Stream size : 685 MiB (100%)

Mas info en:
22 2



25/07/2013 12:52:17 am 
           1                           
para esta version no me calzaron

Oblivion.2013.720p.BluRay.x264-SPARKS [PublicHD]


al minuto tres defasa


sabes si se puede hacer algo o para que version funciona?


gracias


25/07/2013 01:18:32 am 
           0                           
Templari0s escribió:
para esta version no me calzaron Oblivion.2013.720p.BluRay.x264-SPARKS [PublicHD]al minuto tres defasa sabes si se puede hacer algo o para que version funciona?gracias


Ni idea, preguntale por mp a Vaegs, yo aun no lo he muxeado a la pelicula.

PD: Pero deberia calzarte perfectamente a ese version, yo tengo la misma y lo acabo de muxear y calza a la perfeccion y si checas....tienen la misma duracion: 2:04:42, algun error que haya pasado pero va full con ese video.


25/07/2013 01:28:21 am 
           0                           
como al minuto tres que el tipo se comienza tomar las armas del armario


ya se va por otro lado el audio


25/07/2013 01:43:27 am 
           0                           
Templari0s escribió:
como al minuto tres que el tipo se comienza tomar las armas del armario ya se va por otro lado el audio


La estoy viendo con el latino dts y va full.


25/07/2013 02:05:40 am 
           1                           
Con Oblivion.2013.1080p.BluRay.x264-SPARKS va perfecto.
Es imposible que se desincronice si la fuente de SPARKS es la misma que la del audio, el BD Zona 1 americano.


25/07/2013 02:12:17 am 
           0                           
PD: Algo estas haciendo mal


25/07/2013 02:47:20 am 
           0                           
probado y anda a la perfección opino lo mismo q dijeron otros comentarios es imposible q tnga el desfase ese q dices el audio extraído de blu ray no hay forma q se te de sincronice algo mandaste de mas xD


25/07/2013 03:04:35 am 
           0                           
ok yo lo invente por que me gusta gueviar mucho


25/07/2013 03:29:04 am 
           0                           
Length..............: 2h 4mn
Video...............: 1280x536 (X264 @ 23.976fps)
Bitrate.............: 6271Kbps
Audio...............: DTS 1509 Kbps
Language............: English
Subtitles...........: English
Genre ..............: Action Adventure

Oblivion.2013.720p.BluRay.x264-SPARKS [PublicHD] esta pelicula bajada de extra torrent

2horas 4minutos 42 segundos..



el audio latino que me baje de la pag de vaeg

dice 2 horas 6 minutos 56 segundos



no son iguales no se que versione bajaron pero la mia y ese audio no son iguales


25/07/2013 03:55:54 am 
           0                           
......Oblivion.2013.1080p.BluRay.x264-SPARKS.mkv
Format : Matroska
Format version : Version 4 / Version 2
File size : 9.41 GiB
Duration : 2h 4mn
Overall bit rate : 10.8 Mbps
Encoded date : UTC 2013-07-25 04:24:04
Writing application : mkvmerge v6.3.0 (You cant stop me!) built on Jun 28 2013 20:09:41
Writing library : libebml v1.3.0 + libmatroska v1.4.0

Video
ID : 1
Format : AVC
Format/Info : Advanced Video Codec
Format profile : High@L4.1
Format settings, CABAC : Yes
Format settings, ReFrames : 5 frames
Codec ID : V_MPEG4/ISO/AVC
Duration : 2h 4mn
Bit rate : 8 527 Kbps
Width : 1 920 pixels
Height : 808 pixels
Display aspect ratio : 2.40:1
Frame rate mode : Constant
Frame rate : 23.976 fps
Color space : YUV
Chroma subsampling : 4:2:0
Bit depth : 8 bits
Scan type : Progressive
Bits/(PixelFrame) : 0.229
Stream size : 7.25 GiB (77%)
Writing library : x264 core 133 r2334 a3ac64b
Encoding settings : cabac=1 / ref=5 / deblock=1:0:0 / .....................
Language : English
Default : Yes
Forced : No

Audio #1
ID : 2
Format : DTS
Format/Info : Digital Theater Systems
Codec ID : A_DTS
Duration : 2h 4mn
Bit rate mode : Constant
Bit rate : 1 510 Kbps
Channel(s) : 6 channels
Channel positions : Front: L C R, Side: L R, LFE
Sampling rate : 48.0 KHz
Bit depth : 24 bits
Compression mode : Lossy
Stream size : 1.32 GiB (14%)
Title : Inglés, DTS 5.1 @1536 Kbps
Language : English
Default : Yes
Forced : No

Audio #2
ID : 3
Format : DTS
Format/Info : Digital Theater Systems
Codec ID : A_DTS
Duration : 2h 4mn
Bit rate mode : Constant
Bit rate : 755 Kbps
Channel(s) : 6 channels
Channel positions : Front: L C R, Side: L R, LFE
Sampling rate : 48.0 KHz
Bit depth : 24 bits
Compression mode : Lossy
Stream size : 673 MiB (7%)
Title : Latino, DTS 5.1 @768 Kbps
Language : Spanish
Default : No
Forced : No

Esto es lo que dura el audio exactamente:
2h 4min. 42seg. 336ms
Audio y Video son exactos en tiempo. Mi único consejo es que bajes una nueva versión (cualquier rip) de otro lado.




Otros threads relacionados
Season 4, Episode 21 – b&Rate of Exchange/b&b&Aired: 5/15/2009/b&b&SINOPSIS/b&Familiar faces turn up as Michael tries to take down the Company. b&TRADUCCION LITERAL/b&Rostros familiares vuelven mientras Michael intenta destruir a la Compañia.Season 4, Episode 22 – b&Killing Your Number/b&b&Aired: 5/15/2009/b&b&SINOPSIS/b&Michael makes one final attempt
Por: mandrake_l el 15/05/2009 05:40:07 pm
- Leido: 7114 veces - Votos: 8 - Mensajes: 43 - Último mensaje: Xerafin Ver último mensaje
Necesito saber cual es el frame rate de National Treasure: Para la version de 2 CDs TELECINE.5.1.AC3.XviD-DiAMOND por favor. y tambien como unirlos correctamente
Por: tinaja el 10/01/2005 03:29:58 am
- Leido: 2379 veces - Votos: 0 - Mensajes: 1 - Último mensaje: Ver último mensaje


rate

3