Login - 461 users online  

  

[Vzla] Barrio Sin Ley - 2010 - DVDRip Mp3 -





Thread creado por mundocd el 09/05/2011 09:52:55 pm. Lecturas: 1,968. Mensajes: 1. Favoritos: 0






09/05/2011 09:52:55 pm 
           0                           
mundocd


Miembro desde: 11/10/2003

Threads abiertos: 40
Mensajes: 334  
Subtítulos subidos: 5
Threads Favoritos: 0







Sinopsis: Barrio sin ley´´ es la ópera prima de José Rafael Abreu quien ha trabajado junto a directores como Elia Schneider y José Ramón Novoa. Es otro caso de cine guerrilla, pues Abreu reunió dinero y con el apoyo de la iglesia evangélica ´´Nosotros Unidos´´ y Ávila TV se dispuso a rodar su película. Consiguió los actores en el barrio El 70 y otros cercanos.

Caps:


Info de La Película: Format : AVI
Format/Info : Audio Video Interleave
File size : 950 MiB
Duration : 34mn 22s
Overall bit rate : 3 865 Kbps
Writing application : Lavf52.39.0
Video
Format : xvid
Codec ID : xvid
Duration : 34mn 22s
Bit rate : 3 595 Kbps
Width : 720 pixels
Height : 480 pixels
Display aspect ratio : 1.500
Frame rate : 29.970 fps
Standard : NTSC
Resolution : 24 bits
Bits/(PixelFrame) : 0.347
Stream size : 884 MiB (93%)
Audio #1
ID : 1
Format : MPEG Audio
Format version : Version 1
Format profile : Layer 3
Codec ID : 55
Codec ID/Hint : MP3
Duration : 34mn 22s
Bit rate mode : Constant
Bit rate : 256 Kbps
Channel(s) : 2 channels
Sampling rate : 48.0 KHz
Resolution : 16 bits
Stream size : 62.9 MiB (7%)
Alignment : Aligned on interleaves
Interleave, duration : 24 ms (0.72 video frame)
Writing library : LAME3.98.2


La película esta disponible en DD en UltraForos!!!




Otros threads relacionados


barrio

3