Login - 1236 users online  

  

subtitulos para The Number Stations 2013 WEBRip X264 AAC-VoXHD





Thread creado por dariogm el 14/04/2013 02:52:16 pm. Lecturas: 778. Mensajes: 1. Favoritos: 0






14/04/2013 02:52:16 pm 
           1                           
dariogm


Miembro desde: 14/03/2013

Threads abiertos: 8
Mensajes: 20  
Subtítulos subidos: 0
Threads Favoritos: 0





ya salio esta peli que esta 8 puntos por lo visto del trailer los que quieran descargarla paso el link por mp....gracias a los que puedan subir el subtitulo!!!

11 1





Otros threads relacionados
[image]http://images.wrzko.eu/images/66427743173048659291.jpg[/image]Director: Seth MacFarlaneReparto: Seth MacFarlane - Charlize Theron - Amanda Seyfried - Giovanni Ribisi - Neil Patrick Harris - Sarah Silverman - Liam NeesonSinopsis:Seth MacFarlane dirige, produce, co-escribe e interpreta el papel de Albet un cobarde criador de ovejas, en la película “PUEBLO CHICO, PISTOLA GRANDE” (a million ways to die in the west). Después de que Albert se hecha a atrás en un duelo, su novia lo deja por otro hombre, entonces una misteriosa y hermosa mujer llega al pueblo, le ayuda a recobrar su coraje y se enamoran. Pero cuando su marido, un famoso bandido, llega a buscar venganza, el agricultor debe poner su coraje recién descubierto a prueba.Junto a Seth MacFarlane actúan la ganadora del oscar® Charlize Theron, Liam Neeson, Amanda Seyfried, Giovanni Ribisi, Sarah Silverman y Neil Patrick Harris.A.Million.Ways.To.Die.In.The.West.2014.WEBRip.HC.XviD.MP3-RARBGNotes:Hardcoded Chinese subtitles.Greetz to everyone :)Info:Format : AVIFormat/Info : Audio Video InterleaveFile size : 1.91 GiBDuration : 1h 51mnOverall bit rate : 2 453 KbpsMovie name : RARBG.COM - A.Million.Ways.To.Die.In.The.West.2014.WEBRip.HC.XviD.MP3-RARBGWriting library : VirtualDub build 35491/releaseComment : RARBG.COM - A.Million.Ways.To.Die.In.The.West.2014.WEBRip.HC.XviD.MP3-RARBGVideoID : 0Format : MPEG-4 VisualFormat profile : Simple@L5Format settings, BVOP : NoFormat settings, QPel : NoFormat settings, GMC : No warppointsFormat settings, Matrix : Default (H.263)Codec ID : XVIDCodec ID/Hint : XviDDuration : 1h 51mnBit rate : 2 249 KbpsWidth : 960 pixelsHeight : 400 pixelsDisplay aspect ratio : 2.40:1Frame rate : 25.000 fpsColor space : YUVChroma subsampling : 4:2:0Bit depth : 8 bitsScan type : ProgressiveCompression mode : LossyBits/(PixelFrame) : 0.234Stream size : 1.75 GiB (92%)Writing library : Lavc55.61.100
Por: efren1218 el 14/06/2014 10:51:21 am
- Leido: 4983 veces - Votos: 51 - Mensajes: 16 - Último mensaje: djbloke Ver último mensaje
Salio esta version Dark Skies 2013 Webrip 720p Read Info X264 AC3 TommieCookDark Skies[image]http://subtitlesbank.com/pictures/71/90/119071.jpg[/image]Descrita como un thriller psicológico sobre una pareja de los suburbios cuya vida se convierte en una pesadilla cuando una aterradora presencia alienígena entra en su casa cada noche para acechar a sus hijos. Cada vez más aislados de unos amigos y vecinos que dudan de los hechos, la pareja se verá obligada a solucionar el problema con sus propias manos para salvar a su familia.VideoID : 0Format : AVCFormat/Info : Advanced Video CodecFormat profile : High@L4.1Format settings, CABAC : YesFormat settings, ReFrames : 4 framesCodec ID : X264Codec ID/Info : XiWave GNU GPL x264 MPEG-4Duration : 1h 33mnBit rate : 2 500 KbpsWidth : 1 280 pixelsHeight : 544 pixelsDisplay aspect ratio : 2.35:1Frame rate : 25.000 fpsColor space : YUVChroma subsampling : 4:2:0Bit depth : 8 bitsScan type : ProgressiveBits/(PixelFrame) : 0.144Stream size : 1.61 GiB (84%)Writing library : x264 core 125 r2200bm 999b753AudioAudioID : 1Format : AC-3Format/Info : Audio Coding 3Mode extension : CM (complete main)Format settings, Endianness : BigCodec ID
Por: thegod69 el 03/04/2013 01:30:40 am
- Leido: 1970 veces - Votos: 43 - Mensajes: 3 - Último mensaje: TaMaBin Ver último mensaje
Película:wave:
Por: PORO81 el 25/11/2012 02:30:08 am
- Leido: 4398 veces - Votos: 34 - Mensajes: 19 - Último mensaje: torinojj Ver último mensaje
[b]Encontré esta de casualidad en la web, será fake??? Porque no es Cam, ni TS y las Screenshots se ve de buena calidad.[image]http://image.gxzone.com/images/c/2/c245e6f34c8.jpg[/image]Release Info:Release Name: Grave.Encounters.2.2012.WEBRiP.XviD.AC3-iTUNESFormat: AVISize: 708 MiBVideo: XviD 720 x 364 1 865 Kbps 23.976 FPS 1.978Audio: English 384 Kbps 2 ch AC-3Runtime: 1h 38mnSubtitles: NoneSource: iTUNES ON DEMANDIMDB Info:Name: Grave Encounters 2Genre: HorrorIMDB Link: http://www.imdb.com/title/tt2231554/IMDB Rating: 5.5/10 from 74 usersDirector: John PoliquinWriter: The Vicious BrothersCast: Reese Alexander, Stephanie Bennett and Jeffrey Bowyer-Chapman Plot: A film student who is obsessed with the movie Grave Encounters sets outwith his friends to visit the psychiatric hospital depicted in the originalfilm. Screenshots:[image]http://image.gxzone.com/images/8/5/857da2576db.png[/image][image]http://image.gxzone.com/images/f/2/f2fedee533a.png[/image][image]http://image.gxzone.com/images/7/6/766b4aa418f.png[/image][/b]
Por: TabataV el 03/10/2012 03:18:01 am
- Leido: 7362 veces - Votos: 28 - Mensajes: 48 - Último mensaje: Alonso 155 Ver último mensaje
[image]http://www.masalladeorion.net/wp-content/2013/05/europa-report-poster.jpg[/image][b]En equipo internacional de astronautas es enviado a una misión privada en la cuarta luna de Júpiter. [/b][image]http://www.filmofilia.com/wp-content/uploads/2013/05/EUROPA-REPORT1.jpg[/image][youtube]M-nQmu6coSU[/youtube]
Por: julini2 el 30/06/2013 01:53:25 am
- Leido: 1402 veces - Votos: 27 - Mensajes: 8 - Último mensaje: sermartin Ver último mensaje
Ojalá sirva, todavía no veo la película ya en la tele con el subtítulo, pero lo estuve checando texto contra audio, le arreglé cosas aquí, le retocaba más detalles, más palabras y es lo mejor que lo puedo dejar, quizás alguna frase se me haya pasado, para versión Grave Encounters 2 2012 WEBRiP XviD AC3 iTUNES avi, ojalá les sirva, no fue nada sencillo, trate de hacer mi mejor esfuerzo, se que hay expectativas, ya la apreciación del filme mismo, queda del ojo de cada quien. Y me voy a otros proyectos de subtitulación. :cool2: :wave: :wave: :wave:
Por: PORO81 el 09/10/2012 03:37:05 am
- Leido: 2503 veces - Votos: 27 - Mensajes: 13 - Último mensaje: xbxoxy Ver último mensaje
:cry: :cuchi: :confused: :cry: :thumbsup:
Por: oraldo el 08/12/2012 08:10:17 pm
- Leido: 7255 veces - Votos: 22 - Mensajes: 35 - Último mensaje: FabioDasil Ver último mensaje


webrip

3